[美女] 克拉拉的美丽色彩瑜伽 4K 2160PTS 3.18GB(这个超高清有人看不)

2019-04-30 03:54:26  阅读 473 次 评论 0 条

183352ztbhe000y1l1ub0t.jpg

183354r9wy8cncz88yznxo.jpg

183459nczzi0c93xzxjjcr.jpg

183417cbx1rpx1bql1bqq0.jpg

General
ID : 1 (0x1)
Complete name : 클라라의 뷰티풀 컬러요가 E1 2160p UHDTV HEVC-BtttS.ts
Format : MPEG-TS
File size : 3.18 GiB
Duration : 13 min 39 s
Overall bit rate mode : Variable
Overall bit rate :33.4 Mbps

Video
ID : 256 (0x100)
Menu ID : 1 (0x1)
Format :HEVC
Format/Info : High Efficiency Video Coding
Format profile : Main[email protected]@Main
Codec ID : 36
Duration : 13 min 39 s
Bit rate :31.3 Mbps
Width : 3840 pixels
Height : 2160 pixels
Display aspect ratio : 16:9
Frame rate :60.000 FPS
Color space : YUV
Chroma subsampling : 4:2:0
Bit depth :10 bits
Bits/(Pixel*Frame) : 0.063
Stream size : 2.99 GiB (94%)
Writing library : ATEME Titan KFE 3.6.2 (4.6.1.9)

Audio
ID : 257 (0x101)
Menu ID : 1 (0x1)
Format : AC-3
Format/Info : Audio Coding 3
Mode extension : CM (complete main)
Format settings, Endianness : Big
Codec ID : 129
Duration : 13 min 39 s
Bit rate mode : Constant
Bit rate : 384 kbps
Channel(s) : 2 channels
Channel positions : Front: L R
Sampling rate : 48.0 kHz
Frame rate : 31.250 FPS (1536 spf)
Bit depth : 16 bits
Compression mode : Lossy
Delay relative to video : 5 ms
Stream size : 37.5 MiB (1%)
Language : Korean

Menu
ID : 4096 (0x1000)
Menu ID : 1 (0x1)
Duration : 13 min 39 s
List : 256 (0x100) (HEVC) / 257 (0x101) (AC-3, Korean)
Language : / Korean
Service name : Shyguy
Service provider : Born 2 Seed
Service type : digital television


下载地址:[文件下载回来后把后缀名.7z改为.ts即可播放]

飞猫云:http://fsl.to/vtba96

yunfile:http://fourpan.com/fs/4l0adn0y0a0neg76/

无广告/干净云/直链/BT下载

VIP访问内容

需开通青铜VIP及以上VIP等级才能访问此内容

加入永久VIP畅享全站资源无限制下载!

郑重声明:

本站所有内容均由互联网收集整理、网友上传,并且以计算机技术研究交流为目的,仅供大家参考、学习,不存在任何商业目的与商业用途。

若您需要商业运营或用于其他商业活动,请您购买正版授权并合法使用。 我们不承担任何技术及版权问题,且不对任何资源负法律责任。

如资源失效请留言联系站长,压缩文件请用好压或者360压缩软件解压,请勿在线解压。


本文地址:http://www.2y2y.co/363.html
版权声明:本文为原创文章,版权归 福利鸟 所有,欢迎分享本文,转载请保留出处!

发表评论取消回复


表情

还没有留言,还不快点抢沙发?